Tiesto Elements of Life Copenhagen (Parte 1).
Rock steady

18+ Escorts 2015 480p WEBRip English AAC LLG torrent download

seeders: 575
leechers: 342
updated:
Added ago by LifeLongg ***** in Movies
Torrent Downloaded 10 times.
Info Hash: 9AAAE4813A6B49C99BDC5DFC4AD2EC7A81CB30FB


Torrent Files

18+ Escorts 2015 480p WEBRip English AAC LLG (Size: 349.3 MB)
  18+ Escorts 2015 480p WEBRip English AAC LLG 349.3 MB

Torrent Description







******************************Thumbnail:**********************



******************************Screenshots:********************

Screenshot 1

Screenshot 2

Screenshot 3

Screenshot 4

Screenshot 5

Screenshot 6

Screenshot 7

Screenshot 8

Screenshot 9

Screenshot 0

**************************************************************

Complete name : 18+.Escorts.2015.480p.WEBRip.English.AAC.LLG.mp4
Format : MPEG-4
Format profile : Base Media
Codec ID : isom (isom/iso2/avc1/mp41)
File size : 342 MiB
Duration : 46 min 26 s
Overall bit rate : 1 028 kb/s
Writing application : Lavf57.56.101

Video
ID : 1
Format : AVC
Format/Info : Advanced Video Codec
Format profile : [email protected]
Format settings : CABAC / 4 Ref Frames
Format settings, CABAC : Yes
Format settings, RefFrames : 4 frames
Codec ID : avc1
Codec ID/Info : Advanced Video Coding
Duration : 46 min 26 s
Bit rate : 900 kb/s
Width : 720 pixels
Height : 404 pixels
Display aspect ratio : 16:9
Frame rate mode : Constant
Frame rate : 29.970 (29970/1000) FPS
Color space : YUV
Chroma subsampling : 4:2:0
Bit depth : 8 bits
Scan type : Progressive
Bits/(Pixel*Frame) : 0.103
Stream size : 296 MiB (87%)

Audio
ID : 2
Format : AAC
Format/Info : Advanced Audio Codec
Format profile : LC
Codec ID : mp4a-40-2
Duration : 46 min 26 s
Bit rate mode : Constant
Bit rate : 129 kb/s
Channel(s) : 2 channels
Channel positions : Front: L R
Sampling rate : 48.0 kHz
Frame rate : 46.875 FPS (1024 SPF)
Compression mode : Lossy
Stream size : 42.7 MiB (13%)
Default : Yes
Alternate group : 1



Related Torrents

torrent name size age seed leech
867.13 MB 1 minute 554 385
2.6 MB 2 minutes 535 128
3.2 GB 2 minutes 771 198
2.1 MB 2 minutes 709 69
5.0 GB 2 minutes 216 436

Sharing Widget


Download torrent
349.3 MB
seeders:1214
leechers:386
18+ Escorts 2015 480p WEBRip English AAC LLG



To share this torrent use the code below and insert it into comments, status messages, forum posts or your signature.

Torrent: 18+ Escorts 2015 480p WEBRip English AAC LLG

Comments

Latest Searches